<?xml version="1.0" standalone="no"?>
<!DOCTYPE svg PUBLIC "-//W3C//DTD SVG 1.1//EN" "http://www.w3.org/Graphics/SVG/1.1/DTD/svg11.dtd" >
<svg xmlns="http://www.w3.org/2000/svg">
  <metadata>Created by iconfont</metadata>
  <defs>
  <font id="iconfont-abl" horiz-adv-x="1024">
    <font-face
      font-family="iconfont-abl"
      font-weight="400"
      font-stretch="normal"
      units-per-em="1024"
      ascent="896"
      descent="-128"
    />
      <missing-glyph />
      
      <glyph glyph-name="xiangji" unicode="&#59591;" d="M659.925333 768a74.666667 74.666667 0 0 0 71.338667-52.618667L754.56 640H821.333333c64.8 0 117.333333-52.533333 117.333334-117.333333v-426.666667c0-64.8-52.533333-117.333333-117.333334-117.333333H202.666667c-64.8 0-117.333333 52.533333-117.333334 117.333333V522.666667c0 64.8 52.533333 117.333333 117.333334 117.333333h66.773333l23.296 75.381333A74.666667 74.666667 0 0 0 364.074667 768h295.850666zM512 490.666667c-88.362667 0-160-71.637333-160-160 0-88.362667 71.637333-160 160-160 88.362667 0 160 71.637333 160 160 0 88.362667-71.637333 160-160 160z m0-256a96 96 0 1 1 0 192 96 96 0 0 1 0-192z"  horiz-adv-x="1024" />
      
      <glyph glyph-name="wenti" unicode="&#59478;" d="M521.404082 305.110204s-0.522449 0 0 0c-12.016327 0-20.897959 9.926531-20.89796 21.420408 0.522449 18.808163 1.567347 31.869388 4.179592 41.27347 2.612245 9.926531 6.791837 18.808163 12.538776 26.644898 4.179592 5.746939 10.44898 9.926531 18.808163 16.195918 5.746939 4.179592 12.016327 8.881633 17.763265 13.583673 22.987755 20.37551 32.391837 33.436735 36.571429 40.228572 5.22449 9.404082 7.836735 19.853061 7.836735 31.346939 0 19.853061-7.314286 36.571429-22.987755 50.677551-16.195918 14.628571-37.616327 21.942857-65.828572 21.942857-27.689796 0-41.273469-7.314286-55.902041-20.37551-15.15102-13.583673-24.555102-33.436735-27.689796-60.081633-1.567347-11.493878-12.016327-19.853061-23.510204-18.285714-11.493878 1.567347-19.853061 12.016327-18.285714 23.510204 4.702041 37.093878 18.285714 65.828571 41.795918 86.204081 24.555102 21.942857 48.587755 30.82449 83.591837 30.82449 38.661224 0 70.530612-10.971429 94.040816-32.914286 24.555102-22.465306 36.571429-49.632653 36.571429-81.50204 0-18.285714-4.179592-35.526531-13.061224-51.2-8.359184-14.628571-22.987755-31.869388-45.453062-51.2-7.314286-6.269388-14.628571-12.016327-20.37551-16.195919-3.657143-2.612245-8.359184-6.269388-9.926531-7.836734-2.612245-3.657143-4.179592-7.836735-5.746938-12.538776-1.044898-3.134694-2.612245-11.493878-2.612245-31.346939-1.044898-11.493878-9.926531-20.37551-21.420408-20.37551zM520.881633 210.02449m-31.346939 0a31.346939 31.346939 0 1 1 62.693877 0 31.346939 31.346939 0 1 1-62.693877 0ZM512-33.959184c-230.4 0-417.959184 187.559184-417.959184 417.959184s187.559184 417.959184 417.959184 417.959184 417.959184-187.559184 417.959184-417.959184-187.559184-417.959184-417.959184-417.959184z m0 794.122449c-207.412245 0-376.163265-168.75102-376.163265-376.163265s168.75102-376.163265 376.163265-376.163265 376.163265 168.75102 376.163265 376.163265-168.75102 376.163265-376.163265 376.163265z"  horiz-adv-x="1024" />
      
      <glyph glyph-name="edit" unicode="&#58922;" d="M928-64H96c-17.6 0-32 14.4-32 32s14.4 32 32 32h832c17.6 0 32-14.4 32-32s-14.4-32-32-32zM945.1 662.1L821.7 809.2c-12.6 15-30.8 22.8-49.1 22.8-14.5 0-29.1-4.9-41.1-14.9L290.3 446.9 68.9 92.3c-13.9-22.5 3.7-48.9 27-48.9 3.9 0 8 0.7 12.1 2.4l388 155.9-41.2 49.1-280.7-109.9 157.4 256.9v-0.1 0.2l329.4 276.4 123.4-147.1-329.5-276.4 41.2-49.1L937.2 572c27 22.6 30.5 63.2 7.9 90.1zM896 620.9l-62.7-52.6-123.4 147.1 62.7 52.6h0.2L896 621.1v-0.2z"  horiz-adv-x="1024" />
      
      <glyph glyph-name="xin-shipin" unicode="&#59012;" d="M424.96 537.6c-81.92 0-153.6-66.56-153.6-153.6 0-81.92 66.56-153.6 153.6-153.6s153.6 66.56 153.6 153.6c0 81.92-66.56 153.6-153.6 153.6z m0-256c-56.32 0-102.4 46.08-102.4 102.4s46.08 102.4 102.4 102.4 102.4-46.08 102.4-102.4-40.96-102.4-102.4-102.4zM957.44 174.08c10.24 5.12 10.24 15.36 10.24 15.36V578.56s0 15.36-20.48 20.48c-10.24 5.12-25.6 0-25.6 0l-128-66.56V619.52c0 35.84-30.72 66.56-66.56 66.56H128c-35.84 0-66.56-30.72-66.56-66.56v-471.04c0-35.84 30.72-66.56 66.56-66.56h599.04c35.84 0 66.56 30.72 66.56 66.56v92.16l138.24-66.56s20.48-5.12 25.6 0z m-215.04 317.44v-343.04c0-10.24-10.24-20.48-20.48-20.48H128c-10.24 0-20.48 10.24-20.48 20.48V619.52c0 10.24 10.24 20.48 20.48 20.48h593.92c10.24 0 20.48-10.24 20.48-20.48v-128z m174.08-261.12l-122.88 61.44V476.16L916.48 537.6v-307.2z"  horiz-adv-x="1024" />
      
      <glyph glyph-name="xin-youjiantou" unicode="&#58990;" d="M674.133333 409.6l-298.666666 298.666667c-4.266667 8.533333-12.8 8.533333-17.066667 8.533333-17.066667 0-29.866667-8.533333-29.866667-25.6 0-8.533333 4.266667-12.8 8.533334-21.333333l290.133333-290.133334-290.133333-281.6c-4.266667-4.266667-8.533333-12.8-8.533334-21.333333 0-17.066667 12.8-29.866667 29.866667-29.866667 8.533333 0 12.8 4.266667 21.333333 8.533334l298.666667 290.133333c8.533333 8.533333 12.8 17.066667 12.8 29.866667-4.266667 17.066667-8.533333 25.6-17.066667 34.133333z"  horiz-adv-x="1024" />
      
      <glyph glyph-name="xin-zuojiantou" unicode="&#58980;" d="M396.8 388.266667l290.133333 281.6c4.266667 4.266667 8.533333 12.8 8.533334 21.333333 0 17.066667-12.8 29.866667-29.866667 29.866667-8.533333 0-12.8-4.266667-21.333333-8.533334l-298.666667-290.133333c-8.533333-8.533333-12.8-17.066667-12.8-29.866667 0-12.8 4.266667-21.333333 12.8-29.866666l298.666667-298.666667c4.266667-4.266667 12.8-8.533333 21.333333-8.533333 17.066667 0 29.866667 12.8 29.866667 25.6 0 8.533333-4.266667 12.8-8.533334 21.333333l-290.133333 285.866667z"  horiz-adv-x="1024" />
      
      <glyph glyph-name="xin-duigou" unicode="&#59004;" d="M853.333333 640c-12.8 0-21.333333-4.266667-29.866666-12.8L426.666667 230.4l-183.466667 183.466667c-8.533333 8.533333-17.066667 12.8-29.866667 12.8-25.6 0-42.666667-17.066667-42.666666-42.666667 0-12.8 4.266667-21.333333 12.8-29.866667l213.333333-213.333333c17.066667-17.066667 42.666667-17.066667 59.733333 0l426.666667 426.666667c8.533333 8.533333 12.8 17.066667 12.8 29.866666 0 25.6-17.066667 42.666667-42.666667 42.666667z"  horiz-adv-x="1024" />
      
      <glyph glyph-name="youjiantou2" unicode="&#58962;" d="M326.272 806.656l384-380.416a54.4 54.4 0 0 0 0.384-76.928l-384-387.584a54.4 54.4 0 1 0-77.312 76.544l345.728 348.992-345.344 342.08a54.4 54.4 0 0 0 76.544 77.312z"  horiz-adv-x="1024" />
      
      <glyph glyph-name="zuojiantou" unicode="&#58960;" d="M697.728-38.656l-384 380.416a54.4 54.4 0 0 0-0.384 76.928l384 387.584a54.4 54.4 0 1 0 77.312-76.544L428.928 380.736l345.344-342.08a54.4 54.4 0 0 0-76.544-77.312z"  horiz-adv-x="1024" />
      
      <glyph glyph-name="xin-zhankai" unicode="&#58973;" d="M537.6 354.133333h277.333333c17.066667 0 29.866667 12.8 29.866667 29.866667s-12.8 29.866667-29.866667 29.866667H213.333333c-17.066667 0-29.866667-12.8-29.866666-29.866667s12.8-29.866667 29.866666-29.866667H537.6z"  horiz-adv-x="1024" />
      
      <glyph glyph-name="xin-guanbi" unicode="&#58972;" d="M789.333333 140.8l-238.933333 238.933333 238.933333 238.933334c12.8 12.8 12.8 29.866667 0 42.666666-12.8 12.8-29.866667 12.8-42.666666 0L512 422.4 273.066667 661.333333c-12.8 12.8-29.866667 12.8-38.4 4.266667-12.8-12.8-12.8-29.866667 0-42.666667L469.333333 384l-234.666666-234.666667c-12.8-12.8-12.8-29.866667 0-42.666666 12.8-12.8 29.866667-12.8 42.666666 0L512 341.333333l238.933333-238.933333c12.8-12.8 29.866667-12.8 42.666667 0 4.266667 12.8 4.266667 29.866667-4.266667 38.4z"  horiz-adv-x="1024" />
      
      <glyph glyph-name="shouqi" unicode="&#58959;" d="M814.933333 409.6h-273.066666V686.933333c0 17.066667-12.8 29.866667-29.866667 29.866667s-29.866667-12.8-29.866667-29.866667v-273.066666H209.066667c-17.066667 0-29.866667-12.8-29.866667-25.6 0-17.066667 12.8-29.866667 29.866667-29.866667h273.066666V85.333333c0-17.066667 12.8-29.866667 29.866667-29.866666s29.866667 12.8 29.866667 29.866666v273.066667h273.066666c17.066667 0 29.866667 12.8 29.866667 29.866667-4.266667 12.8-17.066667 21.333333-29.866667 21.333333z"  horiz-adv-x="1024" />
      
      <glyph glyph-name="video-camera" unicode="&#59077;" d="M704 128V640H128v-512z m64 416l192 96v-512l-192 96v-128a32 32 0 0 0-32-32H96a32 32 0 0 0-32 32V672a32 32 0 0 0 32 32h640a32 32 0 0 0 32-32z m0-71.552v-176.896l128-64V536.448zM192 576h192v-64H192z"  horiz-adv-x="1024" />
      
      <glyph glyph-name="untitled96" unicode="&#58887;" d="M512.288-113.984c-274.912 0-497.76 222.848-497.76 497.76s222.848 497.76 497.76 497.76c274.912 0 497.76-222.848 497.76-497.76s-222.848-497.76-497.76-497.76zM700.288 527.232c12.16 12.16 12.16 31.872 0 44s-31.872 12.16-44.032 0l-154.08-154.08-154.08 154.08c-12.16 12.16-31.872 12.16-44.032 0s-12.16-31.84 0-44l154.08-154.08-154.08-154.08c-12.16-12.16-12.16-31.84 0-44s31.872-12.16 44.032 0l154.08 154.08 154.08-154.08c12.16-12.16 31.872-12.16 44.032 0s12.16 31.872 0 44l-154.08 154.08 154.08 154.08z"  horiz-adv-x="1024" />
      
      <glyph glyph-name="sousuo" unicode="&#58890;" d="M446.112323 718.454949c137.567677-0.219798 252.612525-104.59798 266.162424-241.493333 13.562828-136.895354-78.778182-261.818182-213.617777-289.008485-134.852525-27.203232-268.386263 52.156768-308.945455 183.608889s25.018182 272.252121 151.738182 325.779394A267.235556 267.235556 0 0 0 446.112323 718.454949m0 62.060607c-182.794343 0-330.989899-148.195556-330.989899-330.989899s148.195556-330.989899 330.989899-330.989899 330.989899 148.195556 330.989899 330.989899-148.195556 330.989899-330.989899 330.989899z m431.321212-793.341415a30.849293 30.849293 0 0 0-21.94101 9.102223l-157.220202 157.220202c-11.752727 12.179394-11.584646 31.534545 0.37495 43.50707 11.972525 11.972525 31.327677 12.140606 43.494141 0.37495l157.220202-157.220202a31.036768 31.036768 0 0 0 6.723232-33.810101 31.004444 31.004444 0 0 0-28.651313-19.174142z m0 0"  horiz-adv-x="1024" />
      
      <glyph glyph-name="youjiantou1" unicode="&#58911;" d="M720.05818199 36.30545500000005a34.909091 34.909091 0 0 0-49.38472699-49.338182l-372.363637 372.363636a34.909091 34.909091 0 0 0 0 49.338182l372.363637 372.363636a34.909091 34.909091 0 0 0 49.338181-49.338182L372.36363601 384 720.05818199 36.30545500000005z"  horiz-adv-x="1024" />
      
      <glyph glyph-name="shangjiantou" unicode="&#58920;" d="M488.624 583.6L152.976 227.2a29.36 29.36 0 0 1 0-42.352 31.408 31.408 0 0 1 43.552 0L512 519.76l315.36-334.912a31.408 31.408 0 0 1 43.552 0 29.36 29.36 0 0 1 0 42.352L535.264 583.6a36.32 36.32 0 0 1-46.64 0z"  horiz-adv-x="1024" />
      
      <glyph glyph-name="shopping-cart" unicode="&#58932;" d="M136 781.984q32.992 0 57.504-21.504t27.488-54.496l4-38.016h742.016v-0.992l-116.992-396q0-0.992-0.992-0.992L272.032 215.96799999999996l4-34.016q0.992-11.008 8.992-18.496t19.008-7.488h548q11.008 0 19.488-8.512t8.512-20-8.512-20-19.488-8.512H304.032q-32.992 0-57.504 22.016t-27.488 55.008L164.032 699.968q-0.992 11.008-8.992 18.496t-19.008 7.488H57.024q-12 0-20.512 8t-8.512 20 8.512 20 20.512 8h79.008m147.968-795.968q0-15.008 8-28.512t20.992-20.992 28.512-7.488 28.512 7.488 20.512 20.992 7.488 28.512-7.488 28-20.512 20.992-28.512 8-28.512-8-20.992-20.992-8-28m399.008 0q0-15.008 7.488-28.512t20.512-20.992 28.512-7.488 28.512 7.488 20.512 20.992 7.488 28.512-7.488 28-20.512 20.992-28.512 8-28.512-8-20.512-20.992-7.488-28z"  horiz-adv-x="1024" />
      
      <glyph glyph-name="mimayanjing" unicode="&#59325;" d="M512 65.163636C239.709091 65.163636 23.272727 349.090909 16.290909 360.727273l-9.309091 11.636363 9.309091 11.636364c2.327273 4.654545 58.181818 79.127273 144.290909 158.254545 83.781818 72.145455 211.781818 158.254545 353.745455 158.254546S781.963636 616.727273 865.745455 544.581818C954.181818 465.454545 1007.709091 388.654545 1010.036364 386.327273l9.309091-13.963637-11.636364-11.636363C1000.727273 349.090909 784.290909 65.163636 512 65.163636zM48.872727 374.690909C95.418182 318.836364 286.254545 104.727273 512 104.727273S930.909091 318.836364 975.127273 374.690909C930.909091 432.872727 737.745455 663.272727 512 663.272727S93.090909 432.872727 48.872727 374.690909zM512 232.727273c-83.781818 0-151.272727 67.490909-151.272727 151.272727s67.490909 151.272727 151.272727 151.272727S663.272727 467.781818 663.272727 384s-67.490909-151.272727-151.272727-151.272727zM512 500.363636c-62.836364 0-116.363636-53.527273-116.363636-116.363636s51.2-116.363636 116.363636-116.363636 116.363636 51.2 116.363636 116.363636-53.527273 116.363636-116.363636 116.363636z"  horiz-adv-x="1024" />
      
      <glyph glyph-name="tubiao" unicode="&#58882;" d="M512 597.333333c117.76 0 213.333333-95.573333 213.333333-213.333333 0-27.52-5.546667-53.76-15.146666-77.866667l124.8-124.8c64.426667 53.76 115.2 123.306667 146.56 202.666667-74.026667 187.306667-256 320-469.546667 320-59.733333 0-116.906667-10.666667-170.026667-29.866667l92.16-91.946666c24.106667 9.386667 50.346667 15.146667 77.866667 15.146666zM85.333333 713.6l97.28-97.28 19.413334-19.413333C131.626667 541.866667 75.946667 468.693333 42.666667 384c73.813333-187.306667 256-320 469.333333-320 66.133333 0 129.28 12.8 187.093333 36.053333l18.133334-18.133333L841.6-42.666667 896 11.52 139.733333 768 85.333333 713.6zM321.28 477.866667l65.92-65.92c-1.92-9.173333-3.2-18.346667-3.2-27.946667 0-70.613333 57.386667-128 128-128 9.6 0 18.773333 1.28 27.733333 3.2l65.92-65.92C577.28 179.2 545.706667 170.666667 512 170.666667c-117.76 0-213.333333 95.573333-213.333333 213.333333 0 33.706667 8.533333 65.28 22.613333 93.866667z m183.68 33.493333l134.4-134.4L640 384c0 70.613333-57.386667 128-128 128l-7.04-0.64z"  horiz-adv-x="1024" />
      
      <glyph glyph-name="shanglajiantou" unicode="&#58918;" d="M512 192c8.288 0 15.776 3.232 21.456 8.4l0.064-0.08 352 320-0.08 0.08c6.448 5.856 10.56 14.208 10.56 23.6a32 32 0 0 1-32 32c-8.288 0-15.76-3.232-21.456-8.4l-0.08 0.08L512 267.248 181.536 567.68l-0.08-0.08A31.776 31.776 0 0 1 160 576a32 32 0 0 1-32-32c0-9.376 4.112-17.744 10.544-23.6l-0.08-0.08 352-320 0.08 0.08c5.68-5.168 13.168-8.4 21.456-8.4z"  horiz-adv-x="1024" />
      
      <glyph glyph-name="youjiantou" unicode="&#58921;" d="M711.6 407.376L355.2 743.024a29.36 29.36 0 0 1-42.352 0 31.408 31.408 0 0 1 0-43.552L647.76 384 312.848 68.64a31.408 31.408 0 0 1 0-43.552 29.36 29.36 0 0 1 42.352 0l356.4 335.648a36.32 36.32 0 0 1 0 46.64z"  horiz-adv-x="1024" />
      
      <glyph glyph-name="left" unicode="&#58961;" d="M298.666667 672.213333v-576.426666c0-36.906667 43.733333-56.405333 71.210666-31.701334l320.213334 288.213334a42.666667 42.666667 0 0 1 0 63.402666L369.92 703.914667C342.4 728.661333 298.666667 709.12 298.666667 672.213333z"  horiz-adv-x="1024" />
      
      <glyph glyph-name="bottom" unicode="&#58998;" d="M223.786667 170.66666699999996h576.426666c36.906667 0 56.405333 43.733333 31.701334 71.210666l-288.213334 320.213334a42.666667 42.666667 0 0 1-63.402666 0L192.085333 241.91999999999996c-24.746667-27.477333-5.205333-71.210667 31.701334-71.210667z"  horiz-adv-x="1024" />
      
      <glyph glyph-name="top" unicode="&#58999;" d="M800.213333 597.333333H223.786667c-36.906667 0-56.405333-43.733333-31.701334-71.210666l288.213334-320.213334a42.666667 42.666667 0 0 1 63.402666 0l288.213334 320.213334c24.746667 27.477333 5.205333 71.210667-31.701334 71.210666z"  horiz-adv-x="1024" />
      
      <glyph glyph-name="right" unicode="&#59000;" d="M725.333333 95.78666699999997V672.213333c0 36.906667-43.733333 56.405333-71.210666 31.701334l-320.213334-288.213334a42.666667 42.666667 0 0 1 0-63.402666l320.213334-288.213334c27.477333-24.746667 71.210667-5.205333 71.210666 31.701334z"  horiz-adv-x="1024" />
      
      <glyph glyph-name="loading2" unicode="&#59003;" d="M512.000427-128c-69.12 0-136.192 13.482667-199.296 40.192a510.293333 510.293333 0 0 0-162.688 109.824A510.293333 510.293333 0 0 0 0.000427 384a35.968 35.968 0 1 0 72.021333 0 439.338667 439.338667 0 0 1 128.896-311.210667A437.717333 437.717333 0 0 1 512.000427-55.978667a439.338667 439.338667 0 0 1 311.210666 128.896A437.717333 437.717333 0 0 1 951.979093 384c0 59.392-11.562667 116.992-34.56 171.306667a440.448 440.448 0 0 1-94.293333 139.904A437.717333 437.717333 0 0 1 512.000427 824.021333 35.968 35.968 0 1 0 512.000427 896c69.12 0 136.192-13.482667 199.296-40.192a510.293333 510.293333 0 0 0 162.688-109.824 511.104 511.104 0 0 0 109.696-162.688c26.709333-63.104 40.234667-130.176 40.234666-199.296s-13.525333-136.192-40.234666-199.296a508.373333 508.373333 0 0 0-109.653334-162.688A511.104 511.104 0 0 0 512.000427-128z"  horiz-adv-x="1024" />
      
      <glyph glyph-name="cuowu" unicode="&#58971;" d="M875.086452 742.269942C676.053818 941.302575 353.260522 941.302575 154.128323 742.269942s-199.032634-521.825929 0-720.958129 521.825929-199.032634 720.958129 0 199.032634 521.825929 0 720.958129zM725.836868 170.561396c-9.757478-9.757478-25.488922-9.757478-35.246399 0L514.557604 346.594261 338.624306 170.561396c-9.757478-9.757478-25.488922-9.757478-35.2464 0s-9.757478 25.488922 0 35.2464l176.032865 176.032864-176.032865 175.933299c-9.757478 9.757478-9.757478 25.488922 0 35.246399 9.757478 9.757478 25.488922 9.757478 35.2464 0l176.032864-176.032865 176.032865 176.032865c9.757478 9.757478 25.488922 9.757478 35.246399 0 9.757478-9.757478 9.757478-25.488922 0-35.246399L549.804004 381.84066 725.836868 205.807796c9.657912-9.757478 9.657912-25.488922 0-35.2464z"  horiz-adv-x="1028" />
      
      <glyph glyph-name="chenggong" unicode="&#58993;" d="M512 810.666667c235.648 0 426.666667-191.018667 426.666667-426.666667s-191.018667-426.666667-426.666667-426.666667S85.333333 148.352 85.333333 384 276.352 810.666667 512 810.666667z m-74.965333-550.4L346.453333 350.848a42.666667 42.666667 0 1 1-60.330666-60.330667l120.704-120.704a42.666667 42.666667 0 0 1 60.330666 0l301.653334 301.696a42.666667 42.666667 0 1 1-60.288 60.330667l-271.530667-271.488z"  horiz-adv-x="1024" />
      
      <glyph glyph-name="jinggao" unicode="&#60261;" d="M512 864C246.912 864 32 649.088 32 384c0-265.088 214.912-480 480-480 265.088 0 480 214.912 480 480 0 265.088-214.912 480-480 480z m0-896C282.24-32 96 154.24 96 384S282.24 800 512 800s416-186.24 416-416-186.24-416-416-416zM512 512a32 32 0 0 1-32-32v-352a32 32 0 0 1 64 0V480a32 32 0 0 1-32 32zM512 624m-48 0a48 48 0 1 1 96 0 48 48 0 1 1-96 0Z"  horiz-adv-x="1024" />
      
      <glyph glyph-name="cart" unicode="&#58924;" d="M899.138065 198.457806H322.890323l28.936258 58.929549 480.784516 0.858839c16.251871 0 30.191484 11.627355 33.098322 27.681032l66.593033 372.669935a33.626839 33.626839 0 0 1-33.032258 39.605678L287.677935 700.217806l-5.219096 24.576a34.353548 34.353548 0 0 1-33.49471 27.086452H99.427097a34.155355 34.155355 0 1 1 0-68.31071h121.822968l22.858322-108.577032 56.220903-272.218839L227.922581 184.61729000000003a33.825032 33.825032 0 0 1-2.906839-35.608774c5.813677-11.528258 17.507097-18.795355 30.488774-18.795355h60.779355a99.361032 99.361032 0 0 1 79.343484-158.984258 99.361032 99.361032 0 0 1 79.376516 158.984258h155.912258a99.361032 99.361032 0 0 1 79.343484-158.984258 99.361032 99.361032 0 0 1 79.343484 158.984258h109.667097c18.762323 0 34.155355 15.293935 34.155354 34.188387a34.287484 34.287484 0 0 1-34.254451 34.023226zM301.914839 632.8650319999999l557.221161-1.816774-54.56929-305.614452-437.743484-0.792774L301.914839 632.8650319999999z m93.745548-592.929032a30.653935 30.653935 0 0 0-30.554839 30.587871c0 16.846452 13.741419 30.554839 30.554839 30.554839a30.653935 30.653935 0 0 0 21.636129-52.190968 30.587871 30.587871 0 0 0-21.636129-8.951742z m314.632258 0a30.653935 30.653935 0 0 0-30.587871 30.587871c0 16.846452 13.741419 30.554839 30.587871 30.554839a30.653935 30.653935 0 0 0 21.636129-52.190968 30.587871 30.587871 0 0 0-21.636129-8.951742z"  horiz-adv-x="1024" />
      
      <glyph glyph-name="loading" unicode="&#58948;" d="M511.882596 608.001919h-0.361244a31.998984 31.998984 0 0 0-31.659415 31.977309v0.361244c0 0.104761 0.115598 11.722364 0.115598 63.658399V799.999436a31.998984 31.998984 0 1 0 64.001581 0V703.998871c0-52.586273-0.111986-63.88237-0.119211-64.337537a32.002596 32.002596 0 0 0-31.977309-31.659415zM511.998194-63.99842a31.998984 31.998984 0 0 0-31.998984 31.998984v96.379871c0 51.610915-0.111986 63.174332-0.115598 63.286318s0 0.242033 0 0.361243a31.998984 31.998984 0 0 0 63.997968 0.314283c0-0.455167 0.11921-11.711527 0.11921-64.034093v-96.307622a31.998984 31.998984 0 0 0-32.002596-31.998984zM330.899406 532.978788a31.897836 31.897836 0 0 0-22.866739 9.612699c-0.075861 0.075861-8.207461 8.370021-44.931515 45.094076L195.198137 655.570515a31.998984 31.998984 0 0 0 45.256635 45.253022L308.336112 632.942197c37.182834-37.182834 45.090463-45.253022 45.41197-45.578141A31.998984 31.998984 0 0 0 330.899406 532.978788zM806.137421 57.88527a31.901448 31.901448 0 0 0-22.628318 9.374279L715.624151 135.140889c-36.724054 36.724054-45.018214 44.859267-45.097687 44.93874a31.998984 31.998984 0 0 0 44.77618 45.729864c0.32512-0.317895 8.395308-8.229136 45.578142-45.411969l67.88134-67.88134a31.998984 31.998984 0 0 0-22.624705-54.630914zM224.000113 57.88527a31.901448 31.901448 0 0 1 22.628317 9.374279l67.88134 67.88134c36.724054 36.724054 45.021826 44.859267 45.097688 44.93874a31.998984 31.998984 0 0 1-44.776181 45.729864c-0.32512-0.317895-8.395308-8.229136-45.578142-45.411969l-67.88134-67.884953a31.998984 31.998984 0 0 1 22.628318-54.627301zM255.948523 351.941411h-0.361244c-0.104761 0-11.722364 0.115598-63.658399 0.115598H95.942765a31.998984 31.998984 0 1 0 0 64.00158h95.996952c52.586273 0 63.88237-0.111986 64.337538-0.11921a31.998984 31.998984 0 0 0 31.659414-31.97731v-0.361244a32.002596 32.002596 0 0 0-31.988146-31.659414zM767.939492 351.941411a32.002596 32.002596 0 0 0-31.995372 31.666639v0.361244a31.998984 31.998984 0 0 0 31.659415 31.970085c0.455167 0 11.754876 0.11921 64.34115 0.11921h96.000564a31.998984 31.998984 0 0 0 0-64.00158H831.944685c-51.936034 0-63.553638-0.111986-63.665624-0.115598h-0.335957zM692.999446 532.9824a31.998984 31.998984 0 0 0-22.863126 54.381656c0.317895 0.32512 8.229136 8.395308 45.41197 45.578141l67.88134 67.884953A31.998984 31.998984 0 1 0 828.693489 655.570515l-67.892177-67.88134c-31.020013-31.023625-41.644196-41.759794-44.241539-44.393262l-0.697201-0.722488a31.908673 31.908673 0 0 0-22.863126-9.591025z"  horiz-adv-x="1024" />
      
      <glyph glyph-name="loading1" unicode="&#59085;" d="M980.752 582.303c-25.789 60.972-62.702 115.725-109.713 162.736-47.012 47.011-101.764 83.924-162.736 109.713C645.161 881.458 578.106 895 509 895c-2.242 0-4.48-0.015-6.715-0.043-16.567-0.211-29.826-13.812-29.615-30.38 0.209-16.438 13.599-29.618 29.99-29.618l0.39 0.002c1.98 0.026 3.963 0.039 5.95 0.039 61.033 0 120.224-11.947 175.93-35.508 53.82-22.764 102.162-55.359 143.683-96.879s74.115-89.862 96.88-143.683C949.054 503.224 961 444.033 961 383c0-16.568 13.432-30 30-30s30 13.432 30 30c0 69.106-13.541 136.162-40.248 199.303z"  horiz-adv-x="1024" />
      
      <glyph glyph-name="close" unicode="&#59258;" d="M256 85.33333300000004a42.666667 42.666667 0 0 0-30.293333 12.373334 42.666667 42.666667 0 0 0 0 60.586666l512 512a42.666667 42.666667 0 1 0 60.586666-60.586666l-512-512A42.666667 42.666667 0 0 0 256 85.33333300000004zM768 85.33333300000004a42.666667 42.666667 0 0 0-30.293333 12.373334l-512 512a42.666667 42.666667 0 0 0 60.586666 60.586666l512-512a42.666667 42.666667 0 0 0 0-60.586666A42.666667 42.666667 0 0 0 768 85.33333300000004z"  horiz-adv-x="1024" />
      
      <glyph glyph-name="hengxian1" unicode="&#58881;" d="M715.264 282.11199999999997h-406.528c-33.28 0-60.928 27.136-60.928 60.928 0 33.28 27.136 60.928 60.928 60.928h406.528c33.28 0 60.928-27.136 60.928-60.928-0.512-33.28-27.648-60.928-60.928-60.928z"  horiz-adv-x="1024" />
      
      <glyph glyph-name="duihao" unicode="&#58931;" d="M416.832 97.92C400.64 97.92 384.512 104.128 372.16 116.48L119.424 370.24C94.784 395.008 94.784 435.2 119.424 459.968 144.128 484.736 184.128 484.736 208.768 459.968L416.832 251.072 814.4 650.24C839.04 675.072 879.04 675.072 903.744 650.24 928.384 625.472 928.384 585.344 903.744 560.576L461.504 116.48C449.152 104.128 432.96 97.92 416.832 97.92Z"  horiz-adv-x="1024" />
      
    </font>
</defs>
</svg>
